[G片] [Noel Alejandro系列作品]谢谢/Vince And Damian[美国][2016][650M][英语][MP4]

本帖最后由 tcy8264 于 2020-11-2 10:59 编辑



◎译名: 谢谢
◎片名: Vince And Damian
◎年代: 2016
◎导演: Noel Alejandro
◎编剧: Noel Alejandro
◎主演: Vince / Damian Mauro
◎类型: 短片 / 情色 / 同性
◎制片国家/地区: 美国
◎语言: 英语
◎上映日期: 2016(美国)
◎片长: 21分钟
◎IMDb链接: tt8965580

◎简介:

    "Are you always this quiet?" he asks, looking at him through the mirror. There's something mad about his smile and his picturesque moustache. What is he hiding? Those pictures of him, aren't they a little macabre? Mmmm… maybe best not to think. He's here now, and he's who I want.
    "Thank you…" is primarily a sex film, but not only that. Following the path of questioning personal feelings in sex (watched Eloi & Biel yet?), Noel Alejandro creates an erotic piece full of mystery and enigmas. And, it was all improvised! No scripts limiting these two craving for each other. The cherry on top is the soundtrack by Logical Disorder (Javier Barrero), known for its senses of paranoia, totalitarianism and resistance to hopelessness.
    Starring Vince and Damian Mauro (special performance for Noel Alejandro).
    "Thank you…" was filmed in Berlin. Directed by Noel Alejandro.

(以下为机翻方便村友理解大意)

“你总是这么安静吗?”他问,透过镜子看着他。他的笑容和他那如画的小胡子有点疯狂。他藏了什么?他那些照片,不是有点吓人吗?嗯…也许最好别想。他现在在这里,他是我想要的人。

“谢谢…”主要是一部情色电影,但不仅如此。在性生活中遵循质疑个人情感的途径(看了埃洛伊和贝尔的电影吗?),Noel Alejandro创造了一个充满神秘和谜团的情色作品。而且,都是即兴创作的!没有脚本限制这两个对彼此的渴望。《樱桃树顶上》是《逻辑紊乱》(Javier Barrero)的配乐,以偏执、极权主义和对绝望的抵抗而闻名。

由文斯和达米安·莫罗主演(诺埃尔·亚历杭德罗的特别演出)。

“谢谢…”在柏林拍摄。由诺埃尔·亚历杭德罗导演。

下载链接已于 Nov 2, 2020 更新
本帖隐藏的内容需要回复才可以浏览
  1. General
  2. Complete name               : D:\!!TEMP\Noel Alejandro - [谢谢].Vince.And.Damian.AKA.Thank.You.2016.1080p.mp4
  3. Format                      : MPEG-4
  4. Format profile              : Base Media / Version 2
  5. Codec ID                    : mp42 (isom/iso2/avc1/mp41)
  6. File size                   : 651 MiB
  7. Duration                    : 21 min 3 s
  8. Overall bit rate mode       : Variable
  9. Overall bit rate            : 4 321 kb/s
  10. Encoded date                : UTC 2016-05-23 17:04:37
  11. Tagged date                 : UTC 2016-05-23 17:04:37
  12. Writing application         : HandBrake 0.10.5 2016021100
  13. IsTruncated                 : Yes

  14. Video
  15. ID                          : 1
  16. Format                      : AVC
  17. Format/Info                 : Advanced Video Codec
  18. Format profile              : Main@L4
  19. Format settings             : CABAC / 4 Ref Frames
  20. Format settings, CABAC      : Yes
  21. Format settings, Reference  : 4 frames
  22. Codec ID                    : avc1
  23. Codec ID/Info               : Advanced Video Coding
  24. Duration                    : 21 min 3 s
  25. Bit rate                    : 4 000 kb/s
  26. Width                       : 1 920 pixels
  27. Height                      : 1 080 pixels
  28. Display aspect ratio        : 16:9
  29. Frame rate mode             : Variable
  30. Frame rate                  : 23.976 (24000/1001) FPS
  31. Minimum frame rate          : 23.974 FPS
  32. Maximum frame rate          : 23.981 FPS
  33. Color space                 : YUV
  34. Chroma subsampling          : 4:2:0
  35. Bit depth                   : 8 bits
  36. Scan type                   : Progressive
  37. Bits/(Pixel*Frame)          : 0.080
  38. Stream size                 : 602 MiB (93%)
  39. Writing library             : x264 core 142 r2479 dd79a61
  40. Encoding settings           : cabac=1 / ref=4 / deblock=1:0:0 / analyse=0x1:0x131 / me=tesa / subme=11 / psy=1 / psy_rd=1.00:0.00 / mixed_ref=1 / me_range=24 / chroma_me=1 / trellis=2 / 8x8dct=0 / cqm=0 / deadzone=21,11 / fast_pskip=0 / chroma_qp_offset=-2 / threads=12 / lookahead_threads=3 / sliced_threads=0 / nr=0 / decimate=1 / interlaced=0 / bluray_compat=0 / constrained_intra=0 / bframes=16 / b_pyramid=2 / b_adapt=2 / b_bias=0 / direct=3 / weightb=1 / open_gop=0 / weightp=2 / keyint=240 / keyint_min=24 / scenecut=40 / intra_refresh=0 / rc_lookahead=60 / rc=2pass / mbtree=1 / bitrate=4000 / ratetol=1.0 / qcomp=0.60 / qpmin=0 / qpmax=69 / qpstep=4 / cplxblur=20.0 / qblur=0.5 / vbv_maxrate=20000 / vbv_bufsize=25000 / nal_hrd=none / filler=0 / ip_ratio=1.40 / aq=1:1.00
  41. Encoded date                : UTC 2016-05-23 17:04:37
  42. Tagged date                 : UTC 2016-05-23 17:04:37
  43. Color range                 : Limited
  44. Color primaries             : BT.709
  45. Transfer characteristics    : BT.709
  46. Matrix coefficients         : BT.709
  47. Codec configuration box     : avcC

  48. Audio
  49. ID                          : 2
  50. Format                      : AAC LC
  51. Format/Info                 : Advanced Audio Codec Low Complexity
  52. Codec ID                    : mp4a-40-2
  53. Duration                    : 21 min 3 s
  54. Bit rate mode               : Variable
  55. Bit rate                    : 317 kb/s
  56. Channel(s)                  : 2 channels
  57. Channel layout              : L R
  58. Sampling rate               : 48.0 kHz
  59. Frame rate                  : 46.875 FPS (1024 SPF)
  60. Compression mode            : Lossy
  61. Stream size                 : 47.8 MiB (7%)
  62. Title                       : Stereo / Stereo
  63. Default                     : Yes
  64. Alternate group             : 1
  65. Encoded date                : UTC 2016-05-23 17:04:37
  66. Tagged date                 : UTC 2016-05-23 17:04:37
复制代码
1

评分人数

  • naonao730

回复 1# tcy8264 3Q

TOP

谢谢分享

TOP

thanks

TOP

谢谢分享

TOP

Thanks

TOP

謝謝大大辛苦分享

TOP

速 来支持一下,楼主分享好片,感谢了。

TOP

感谢分享!

TOP

谢谢分享

TOP

真的谢谢你,大神。

TOP

十分的感谢

TOP

谢谢分享

TOP

回复 1# tcy8264
想看

TOP

我一直在找这个系列 感谢分享

TOP

谢谢分享

TOP

感谢分享啊

TOP

回复 1# tcy8264


    看看

TOP

谢谢分享

TOP

回复 1# tcy8264


    这种片子大家喜欢啊

TOP

謝謝辛苦分享~!

TOP

TOP

谢谢分享

TOP

谢谢分享

TOP

感谢楼主分享~~

TOP

  • QAF三国群英传信息联盟发布平台
  •