[G片] [Noel Alejandro系列作品]肉欲/Eloi & Biel[西班牙][2013][539M][西班牙语][MP4]

本帖最后由 tcy8264 于 2020-11-2 11:00 编辑



◎译名: 肉欲
◎片名: Eloi & Biel
◎年代: 2013
◎导演: Noel Alejandro
◎编剧: Noel Alejandro
◎主演: Eloi Guzman / Biel Vila
◎类型: 情色 / 同性
◎制片国家/地区: 西班牙
◎语言: 西班牙语
◎上映日期: 2013-08-13
◎片长: 25分钟
◎IMDb链接: tt3898620

◎简介:

  Two youths exploring an empty country house share a moment of uninhibited passion.

下载链接已于 Nov 2, 2020 更新
本帖隐藏的内容需要回复才可以浏览
  1. General
  2. Complete name               : D:\!!TEMP\Noel Alejandro - [肉欲].Eloi.&.Biel.2013.1080p.mp4
  3. Format                      : MPEG-4
  4. Format profile              : Base Media / Version 2
  5. Codec ID                    : mp42 (mp42/isom/avc1)
  6. File size                   : 540 MiB
  7. Duration                    : 23 min 25 s
  8. Overall bit rate mode       : Variable
  9. Overall bit rate            : 3 220 kb/s
  10. Encoded date                : UTC 2013-06-26 19:17:44
  11. Tagged date                 : UTC 2013-06-26 19:30:59
  12. Writing application         : HandBrake 0.9.9 2013051800
  13. IsTruncated                 : Yes

  14. Video
  15. ID                          : 1
  16. Format                      : AVC
  17. Format/Info                 : Advanced Video Codec
  18. Format profile              : Main@L4
  19. Format settings             : CABAC / 4 Ref Frames
  20. Format settings, CABAC      : Yes
  21. Format settings, Reference  : 4 frames
  22. Codec ID                    : avc1
  23. Codec ID/Info               : Advanced Video Coding
  24. Duration                    : 23 min 25 s
  25. Bit rate                    : 3 000 kb/s
  26. Width                       : 1 920 pixels
  27. Height                      : 1 080 pixels
  28. Display aspect ratio        : 16:9
  29. Frame rate mode             : Variable
  30. Frame rate                  : 23.976 (23976/1000) FPS
  31. Minimum frame rate          : 23.974 FPS
  32. Maximum frame rate          : 90 000.000 FPS
  33. Color space                 : YUV
  34. Chroma subsampling          : 4:2:0
  35. Bit depth                   : 8 bits
  36. Scan type                   : Progressive
  37. Bits/(Pixel*Frame)          : 0.060
  38. Stream size                 : 503 MiB (93%)
  39. Writing library             : x264 core 130 r2273 b3065e6
  40. Encoding settings           : cabac=1 / ref=1 / deblock=1:0:0 / analyse=0x1:0x111 / me=hex / subme=2 / psy=1 / psy_rd=1.00:0.00 / mixed_ref=0 / me_range=16 / chroma_me=1 / trellis=0 / 8x8dct=0 / cqm=0 / deadzone=21,11 / fast_pskip=1 / chroma_qp_offset=0 / threads=12 / lookahead_threads=4 / sliced_threads=0 / nr=0 / decimate=1 / interlaced=0 / bluray_compat=0 / constrained_intra=0 / bframes=3 / b_pyramid=2 / b_adapt=1 / b_bias=0 / direct=1 / weightb=1 / open_gop=0 / weightp=1 / keyint=240 / keyint_min=24 / scenecut=40 / intra_refresh=0 / rc_lookahead=10 / rc=2pass / mbtree=1 / bitrate=3000 / ratetol=1.0 / qcomp=0.60 / qpmin=0 / qpmax=69 / qpstep=4 / cplxblur=20.0 / qblur=0.5 / vbv_maxrate=20000 / vbv_bufsize=25000 / nal_hrd=none / ip_ratio=1.40 / aq=1:1.00
  41. Encoded date                : UTC 2013-06-26 19:17:44
  42. Tagged date                 : UTC 2013-06-26 19:30:59
  43. Color range                 : Limited
  44. Color primaries             : BT.709
  45. Transfer characteristics    : BT.709
  46. Matrix coefficients         : BT.709
  47. Codec configuration box     : avcC

  48. Audio
  49. ID                          : 2
  50. Format                      : AAC LC
  51. Format/Info                 : Advanced Audio Codec Low Complexity
  52. Codec ID                    : mp4a-40-2
  53. Duration                    : 23 min 25 s
  54. Bit rate mode               : Variable
  55. Bit rate                    : 216 kb/s
  56. Maximum bit rate            : 394 kb/s
  57. Channel(s)                  : 2 channels
  58. Channel layout              : L R
  59. Sampling rate               : 48.0 kHz
  60. Frame rate                  : 46.875 FPS (1024 SPF)
  61. Compression mode            : Lossy
  62. Stream size                 : 36.2 MiB (7%)
  63. Title                       : Stereo
  64. Encoded date                : UTC 2013-06-26 19:17:44
  65. Tagged date                 : UTC 2013-06-26 19:30:58
复制代码
1

评分人数

  • naonao730

谢谢分享

TOP

谢谢分享

TOP

回复 1# tcy8264

TOP

回复 2# kefu1000


   
谢谢分享

TOP

謝謝大大辛苦分享

TOP

Thanks

TOP

这部片子,已下载过了,还是要感谢和支持楼主了。

TOP

谢谢分享

TOP

好像这是最有名的一部。

TOP

谢谢分享

TOP

谢谢分享

TOP

TOP

回复 1# tcy8264


    好刺激的片子

TOP

好刺激的片

TOP

谢谢分享

TOP

谢谢分享

TOP

想看想看想看

TOP

thanks for sharing

TOP

谢谢分享

TOP

感谢楼主分享

TOP

感谢楼主分享

TOP

感谢楼主分享

TOP

很好,喜欢,楼主辛苦了,感谢

TOP

谢谢分享啦啦

TOP

  • QAF三国群英传信息联盟发布平台
  •